<?xml version="1.0" standalone="no"?>
<!DOCTYPE svg PUBLIC "-//W3C//DTD SVG 1.1//EN" "http://www.w3.org/Graphics/SVG/1.1/DTD/svg11.dtd" >
<svg xmlns="http://www.w3.org/2000/svg">
<metadata></metadata>
<defs>
<font id="texgyreadventorregular" horiz-adv-x="554" >
<font-face units-per-em="1000" ascent="808" descent="-192" />
<missing-glyph horiz-adv-x="277" />
<glyph unicode="&#xfb01;" horiz-adv-x="487" d="M16 480v67h85q-3 192 210 192v-67q-76 0 -106.5 -28.5t-29.5 -96.5h136v-67h-136v-480h-74v480h-85zM350 0v547h74v-547h-74zM350 607v126h74v-126h-74z" />
<glyph unicode="&#xfb02;" horiz-adv-x="485" d="M16 480v67h85q-3 192 210 192v-67q-76 0 -106.5 -28.5t-29.5 -96.5h136v-67h-136v-480h-74v480h-85zM348 0v739h74v-739h-74z" />
<glyph unicode="&#xfb03;" horiz-adv-x="732" d="M16 480v67h85q-3 192 210 192v-67q-76 0 -106.5 -28.5t-29.5 -96.5h173q-3 192 210 192v-67q-76 0 -106.5 -28.5t-29.5 -96.5h136v-67h-136v-480h-74v480h-173v-480h-74v480h-85zM595 0v547h74v-547h-74zM595 607v126h74v-126h-74z" />
<glyph unicode="&#xfb04;" horiz-adv-x="732" d="M16 480v67h85q-3 192 210 192v-67q-76 0 -106.5 -28.5t-29.5 -96.5h173q-3 192 210 192v-67q-76 0 -106.5 -28.5t-29.5 -96.5h136v-67h-136v-480h-74v480h-173v-480h-74v480h-85zM595 0v739h74v-739h-74z" />
<glyph horiz-adv-x="1000" />
<glyph horiz-adv-x="1000" />
<glyph unicode="&#xd;" horiz-adv-x="1000" />
<glyph unicode=" "  horiz-adv-x="277" />
<glyph unicode="&#x09;" horiz-adv-x="277" />
<glyph unicode="&#xa0;" horiz-adv-x="277" />
<glyph unicode="!" horiz-adv-x="295" d="M111 0v126h74v-126h-74zM111 197v542h74v-542h-74z" />
<glyph unicode="&#x22;" horiz-adv-x="309" d="M74 513v226h50v-226h-50zM187 513v226h50v-226h-50z" />
<glyph unicode="#" d="M5 237v61h111l29 155h-124v61h135l42 225h64l-41 -225h163l40 225h67l-41 -225h99v-61h-110l-28 -155h123v-61h-135l-43 -237h-66l43 237h-164l-45 -237h-65l45 237h-99zM181 298h163l29 155h-163z" />
<glyph unicode="$" d="M75 228h69q0 -64 36.5 -101t96.5 -37q56 0 92 38t36 96q0 61 -42 97q-28 23 -93 42q-56 17 -83.5 32.5t-47.5 40.5q-39 47 -39 116q0 68 39 115.5t106 60.5v82h66v-82q74 -11 118 -59.5t44 -121.5h-70q0 55 -32 86.5t-84 31.5t-82.5 -32t-30.5 -87q0 -46 25.5 -70.5 t96.5 -47.5q93 -30 128 -65q55 -52 55 -137q0 -79 -47 -134t-121 -63v-85h-66v85q-170 31 -170 199z" />
<glyph unicode="%" horiz-adv-x="775" d="M13 573q0 74 51.5 125t125.5 51q71 0 122.5 -52t51.5 -124q0 -73 -51.5 -124.5t-124.5 -51.5q-72 0 -123.5 51.5t-51.5 124.5zM79 573q0 -45 32 -77.5t77 -32.5q44 0 76 32t32 78q0 45 -31.5 77.5t-75.5 32.5q-46 0 -78 -32t-32 -78zM182 0l332 739h74l-334 -739h-72z M401 162q0 74 51.5 125t125.5 51q71 0 122.5 -52t51.5 -123q0 -73 -51.5 -124.5t-124.5 -51.5q-72 0 -123.5 51.5t-51.5 123.5zM468 162q0 -45 32 -77t76 -32t76 32t32 77t-31.5 77.5t-75.5 32.5q-46 0 -77.5 -32t-31.5 -78z" />
<glyph unicode="&#x26;" horiz-adv-x="757" d="M57 213q0 73 40.5 123.5t129.5 96.5q-46 48 -64 82.5t-18 72.5q0 69 51 116.5t124 47.5q77 0 127.5 -48t50.5 -121q0 -59 -29.5 -94t-114.5 -78l140 -138l108 208h82l-136 -261l187 -182l-51 -51l-171 166q-44 -87 -97 -126.5t-126 -39.5q-100 0 -166.5 65.5t-66.5 160.5 zM130 205q0 -63 45 -107t110 -44q53 0 93 35t80 117l-178 174q-82 -40 -116 -79.5t-34 -95.5zM219 590q0 -52 81 -126q66 25 97 55.5t31 69.5q0 41 -30.5 68.5t-75.5 27.5q-43 0 -73 -27.5t-30 -67.5z" />
<glyph unicode="'" horiz-adv-x="198" d="M74 513v226h50v-226h-50z" />
<glyph unicode="(" horiz-adv-x="369" d="M57 309q0 138 76.5 262.5t201.5 167.5v-63q-97 -58 -150.5 -160t-53.5 -207q0 -109 52.5 -208.5t151.5 -160.5v-65q-119 44 -198.5 169.5t-79.5 264.5z" />
<glyph unicode=")" horiz-adv-x="369" d="M34 -61q97 56 150.5 159t53.5 208q0 108 -53 208.5t-151 159.5v65q118 -42 198 -168.5t80 -265.5q0 -138 -76.5 -262.5t-201.5 -167.5v64z" />
<glyph unicode="*" horiz-adv-x="425" d="M64 583v49h105l-56 92l49 28l53 -90l52 90l47 -28l-57 -92h103v-49h-102l55 -88l-47 -27l-53 91l-53 -91l-48 28l57 87h-105z" />
<glyph unicode="+" horiz-adv-x="606" d="M63 213v74h203v203h74v-203h203v-74h-203v-203h-74v203h-203z" />
<glyph unicode="," horiz-adv-x="277" d="M91 -67l88 193h74l-88 -193h-74z" />
<glyph unicode="-" horiz-adv-x="332" d="M31 233v63h271v-63h-271z" />
<glyph unicode="." horiz-adv-x="277" d="M101 0v126h74v-126h-74z" />
<glyph unicode="/" horiz-adv-x="437" d="M40 -128l287 867h70l-290 -867h-67z" />
<glyph unicode="0" d="M30 269v210q0 135 65.5 204t181.5 69q114 0 181 -68t67 -205v-210q0 -282 -242 -282q-120 0 -186.5 69.5t-66.5 212.5zM103 281q0 -123 45.5 -175t131.5 -52q89 0 130.5 53t41.5 174v181q0 107 -39 165t-135 58q-86 0 -130.5 -52t-44.5 -171v-181z" />
<glyph unicode="1" d="M155 672v67h199v-739h-73v672h-126z" />
<glyph unicode="2" d="M33 0v67l259 250q40 38 57.5 56t41 47t32.5 55t9 56q0 67 -45 110.5t-115 43.5q-74 0 -117 -48t-43 -137h-73q0 117 63.5 184.5t170.5 67.5q101 0 167 -63.5t66 -161.5q0 -59 -29 -109t-107 -124l-237 -227h369v-67h-469z" />
<glyph unicode="3" d="M33 231h73q0 -88 46.5 -132.5t117.5 -44.5q68 0 114 48t46 118q0 58 -35 103.5t-90 58.5q-24 5 -86 6v66l17 -1q9 -1 19 -1q58 0 92 31.5t34 84.5q0 52 -31 84.5t-81 32.5q-54 0 -84 -34t-30 -96h-73q0 90 51.5 143.5t135.5 53.5q82 0 134 -52.5t52 -134.5 q0 -89 -76 -142q125 -63 125 -199q0 -100 -67 -168.5t-165 -68.5q-103 0 -171 66.5t-68 177.5z" />
<glyph unicode="4" d="M12 135v67l360 537h87v-537h68v-67h-68v-135h-73v135h-374zM97 202h289v435z" />
<glyph unicode="5" d="M26 232h72q10 -79 59.5 -128.5t119.5 -49.5q74 0 125.5 55.5t51.5 136.5t-51 135.5t-126 54.5q-86 0 -153 -83l-57 22l66 364h333v-67h-274l-36 -204q63 35 127 35q103 0 174 -74.5t71 -182.5q0 -109 -72 -184t-176 -75q-101 0 -169.5 65t-84.5 180z" />
<glyph unicode="6" d="M25 244q0 55 17.5 100t70.5 123l183 272h85l-174 -257q46 21 87 21q98 0 166.5 -74t68.5 -180q0 -113 -70.5 -187.5t-178.5 -74.5q-109 0 -182 73.5t-73 183.5zM99 248q0 -84 51.5 -139t129.5 -55q76 0 125.5 54.5t49.5 137.5t-50 136.5t-127 53.5q-76 0 -127.5 -54 t-51.5 -134z" />
<glyph unicode="7" d="M64 672v67h426v-67l-302 -672h-78l304 672h-350z" />
<glyph unicode="8" d="M42 215q0 138 125 198q-86 52 -86 148q0 82 56.5 136.5t140.5 54.5q85 0 140 -54t55 -137q0 -107 -88 -148q127 -56 127 -195q0 -101 -65.5 -166t-166.5 -65q-102 0 -170 65t-68 163zM116 216q0 -71 45.5 -116.5t117.5 -45.5q70 0 114.5 45.5t44.5 116.5q0 70 -45 114.5 t-115 44.5q-71 0 -116.5 -44.5t-45.5 -114.5zM155 567q0 -53 35.5 -88t90.5 -35q50 0 84 34.5t34 86.5t-34.5 86t-87.5 34t-87.5 -33t-34.5 -85z" />
<glyph unicode="9" d="M25 490q0 113 70.5 187.5t178.5 74.5q109 0 182 -73.5t73 -183.5q0 -55 -18 -100t-70 -123l-183 -272h-85l174 257q-46 -21 -87 -21q-98 0 -166.5 74t-68.5 180zM99 493q0 -83 50 -136.5t127 -53.5q76 0 127.5 54t51.5 134q0 84 -51.5 139t-129.5 55q-76 0 -125.5 -54 t-49.5 -138z" />
<glyph unicode=":" horiz-adv-x="277" d="M101 0v126h74v-126h-74zM101 381v126h74v-126h-74z" />
<glyph unicode=";" horiz-adv-x="277" d="M41 -67l88 193h74l-88 -193h-74zM125 381v126h74v-126h-74z" />
<glyph unicode="&#x3c;" horiz-adv-x="606" d="M102 222v56l378 317v-96l-296 -249l296 -249v-96z" />
<glyph unicode="=" horiz-adv-x="606" d="M63 121v74h480v-74h-480zM63 305v74h480v-74h-480z" />
<glyph unicode="&#x3e;" horiz-adv-x="606" d="M102 1l296 249l-296 249v96l378 -317v-56l-378 -317v96z" />
<glyph unicode="?" horiz-adv-x="591" d="M65 508q0 117 65.5 180.5t168.5 63.5q98 0 162 -61.5t64 -155.5q0 -48 -20.5 -87t-69.5 -83q-56 -50 -78.5 -87.5t-23.5 -84.5h-70q1 61 24 105.5t80 98.5q51 47 67.5 75t16.5 65q0 64 -43 106t-109 42q-75 0 -119.5 -44.5t-44.5 -132.5h-70zM261 0v126h74v-126h-74z" />
<glyph unicode="@" horiz-adv-x="867" d="M71 367q0 160 111.5 272.5t270.5 112.5q142 0 243 -92.5t101 -226.5q0 -108 -71 -201t-162 -93q-35 0 -55.5 13t-32.5 44q-52 -52 -119 -52q-61 0 -99.5 41.5t-38.5 106.5q0 115 75.5 208t168.5 93q84 0 115 -69l17 50h61l-93 -278q-20 -61 -20 -77q0 -12 9.5 -20 t24.5 -8q60 0 115 80t55 163q0 113 -84.5 190t-210.5 77q-136 0 -232.5 -98t-96.5 -235q0 -138 96 -234.5t234 -96.5t234 101l40 -33q-46 -55 -120.5 -86.5t-155.5 -31.5q-159 0 -269.5 110.5t-110.5 269.5zM291 294q0 -41 22 -66.5t58 -25.5q65 0 115 89q22 39 38 89t16 79 q0 37 -20 58.5t-54 21.5q-66 0 -120.5 -76.5t-54.5 -168.5z" />
<glyph unicode="A" horiz-adv-x="740" d="M11 0l317 739h83l318 -739h-81l-107 249h-344l-108 -249h-78zM225 316h287l-142 339z" />
<glyph unicode="B" horiz-adv-x="574" d="M76 0v739h173q133 0 193 -47.5t60 -144.5q0 -107 -82 -153q124 -50 124 -182q0 -111 -66.5 -161.5t-218.5 -50.5h-183zM150 67h101q116 0 167 31.5t51 109.5q0 40 -12.5 68t-30.5 43t-51 23t-61.5 10t-75.5 2h-88v-287zM150 421h90q104 0 145.5 27.5t41.5 97.5t-39.5 98 t-148.5 28h-89v-251z" />
<glyph unicode="C" horiz-adv-x="813" d="M44 367q0 166 109 275.5t274 109.5q115 0 206 -55t134 -150h-83q-87 137 -254 137q-132 0 -221.5 -90.5t-89.5 -223.5q0 -130 92 -222.5t220 -92.5q80 0 139 32.5t118 106.5h82q-112 -207 -338 -207q-166 0 -277 109t-111 271z" />
<glyph unicode="D" horiz-adv-x="744" d="M76 0v739h174q101 0 165.5 -13.5t116.5 -44.5q168 -99 168 -314q0 -167 -108 -267t-317 -100h-199zM150 67h103q98 0 160 15.5t106 50.5q106 86 106 237q0 83 -35 149.5t-99 104.5q-79 48 -238 48h-103v-605z" />
<glyph unicode="E" horiz-adv-x="536" d="M76 0v739h404v-67h-330v-265h319v-67h-319v-273h330v-67h-404z" />
<glyph unicode="F" horiz-adv-x="485" d="M76 0v739h375v-67h-301v-267h290v-67h-290v-338h-74z" />
<glyph unicode="G" horiz-adv-x="872" d="M44 371q0 160 113.5 270.5t278.5 110.5q121 0 217 -58t133 -152h-83q-38 67 -106.5 104.5t-154.5 37.5q-137 0 -230 -91t-93 -224q0 -132 94 -223t230 -91q107 0 192.5 64.5t106.5 154.5h-413v67h502q-9 -144 -118 -249t-267 -105q-170 0 -286 111t-116 273z" />
<glyph unicode="H" horiz-adv-x="683" d="M76 0v739h74v-325h383v325h74v-739h-74v347h-383v-347h-74z" />
<glyph unicode="I" horiz-adv-x="226" d="M76 0v739h74v-739h-74z" />
<glyph unicode="J" horiz-adv-x="482" d="M11 175h73q4 -56 37.5 -88.5t88.5 -32.5q122 0 122 177v508h74v-508q0 -122 -50.5 -183.5t-146.5 -61.5q-88 0 -140.5 50t-57.5 139z" />
<glyph unicode="K" horiz-adv-x="591" d="M76 0v739h74v-425l342 425h93l-292 -360l292 -379h-93l-246 320l-96 -118v-202h-74z" />
<glyph unicode="L" horiz-adv-x="462" d="M76 0v739h74v-672h306v-67h-380z" />
<glyph unicode="M" horiz-adv-x="919" d="M76 0v739h115l269 -629l268 629h115v-739h-74v658l-278 -658h-64l-277 658v-658h-74z" />
<glyph unicode="N" horiz-adv-x="740" d="M76 0v739h100l414 -613v613h74v-739h-74l-440 650v-650h-74z" />
<glyph unicode="O" horiz-adv-x="869" d="M44 374q0 154 116 266t275 112q161 0 275.5 -112.5t114.5 -270.5q0 -157 -115 -269.5t-275 -112.5q-163 0 -277 113t-114 274zM119 372q0 -131 92.5 -224t223.5 -93q129 0 222 92.5t93 220.5q0 130 -93 223t-222 93q-128 0 -222 -92.5t-94 -219.5z" />
<glyph unicode="P" horiz-adv-x="592" d="M76 0v739h204q151 0 218 -53.5t67 -170.5q0 -109 -63.5 -162.5t-209.5 -53.5h-142v-299h-74zM150 366h137q110 0 156.5 34.5t46.5 114.5q0 44 -12 74t-29 46t-51 24.5t-63.5 10.5t-79.5 2h-105v-306z" />
<glyph unicode="Q" horiz-adv-x="871" d="M44 369q0 164 114.5 273.5t285.5 109.5q170 0 282.5 -108.5t112.5 -272.5q0 -173 -123 -278q53 -38 92 -38q13 0 19 1v-69q-52 1 -88 15t-74 49q-94 -64 -222 -64q-166 0 -282.5 111.5t-116.5 270.5zM119 363q0 -35 11 -84q78 26 158 26q107 0 192.5 -39t182.5 -124 q101 97 101 229q0 133 -92.5 223t-229.5 90t-230 -92.5t-93 -228.5zM161 216q36 -68 114.5 -114.5t167.5 -46.5t162 45q-80 73 -157 105t-171 32q-63 0 -116 -21z" />
<glyph unicode="R" horiz-adv-x="607" d="M76 0v739h183q169 0 243.5 -59.5t74.5 -178.5q0 -98 -56 -156t-162 -69l207 -276h-92l-249 335q158 0 217.5 35.5t59.5 133.5q0 91 -58.5 129.5t-189.5 38.5h-104v-672h-74z" />
<glyph unicode="S" horiz-adv-x="498" d="M22 207h79q8 -73 49.5 -112.5t104.5 -39.5t104.5 41.5t41.5 105.5q0 61 -35 93.5t-130 61.5q-64 19 -90 31.5t-48 33.5q-52 49 -52 131q0 86 58 142.5t147 56.5q91 0 149 -55.5t58 -144.5h-77q0 59 -37.5 95.5t-94.5 36.5q-55 0 -91.5 -36.5t-36.5 -92.5t35 -86 q23 -20 109 -46q96 -29 137 -59q74 -55 74 -158q0 -94 -63.5 -156.5t-159.5 -62.5q-100 0 -163 60t-68 160z" />
<glyph unicode="T" horiz-adv-x="426" d="M7 672v67h412v-67h-169v-672h-74v672h-169z" />
<glyph unicode="U" horiz-adv-x="655" d="M76 278v461h74v-461q0 -223 178 -223q177 0 177 223v461h74v-461q0 -146 -67.5 -218.5t-184.5 -72.5q-116 0 -183.5 72.5t-67.5 218.5z" />
<glyph unicode="V" horiz-adv-x="702" d="M10 739h81l260 -647l261 647h80l-306 -739h-72z" />
<glyph unicode="W" horiz-adv-x="960" d="M10 739h76l182 -643l177 643h70l177 -643l182 643h76l-212 -739h-95l-164 606l-162 -606h-96z" />
<glyph unicode="X" horiz-adv-x="609" d="M8 0l251 378l-237 361h87l196 -296l195 296h86l-237 -361l252 -378h-87l-209 316l-210 -316h-87z" />
<glyph unicode="Y" horiz-adv-x="592" d="M2 739h82l210 -414l215 414h81l-258 -492v-247h-74v247z" />
<glyph unicode="Z" horiz-adv-x="480" d="M17 0v67l363 605h-352v67h435v-67l-362 -605h373v-67h-457z" />
<glyph unicode="[" horiz-adv-x="351" d="M112 164v298q0 107 54 179.5t147 97.5v-75q-73 -32 -102 -79.5t-29 -136.5v-271q0 -96 28.5 -145t102.5 -82v-75q-201 59 -201 289z" />
<glyph unicode="\" horiz-adv-x="605" d="M84 739h70l310 -739h-70z" />
<glyph unicode="]" horiz-adv-x="351" d="M38 -50q74 33 102.5 80.5t28.5 135.5v272q0 95 -28.5 144t-102.5 82v75q201 -58 201 -289v-297q0 -108 -54.5 -180.5t-146.5 -97.5v75z" />
<glyph unicode="^" horiz-adv-x="606" d="M18 180l243 559h85l242 -559h-81l-203 480l-205 -480h-81z" />
<glyph unicode="_" horiz-adv-x="500" d="M0 -67h500v-58h-500v58z" />
<glyph unicode="`" horiz-adv-x="375" d="M36 708l34 58l193 -116l-34 -56z" />
<glyph unicode="a" horiz-adv-x="683" d="M42 272q0 123 82.5 205.5t205.5 82.5q138 0 216 -110v97h74v-547h-74v96q-44 -59 -92.5 -84t-118.5 -25q-126 0 -209.5 81.5t-83.5 203.5zM117 277q0 -94 63 -158t156 -64q88 0 149 64t61 157q0 91 -62 153.5t-152 62.5q-89 0 -152 -63t-63 -152z" />
<glyph unicode="b" horiz-adv-x="682" d="M63 0v739h74v-286q73 107 215 107q122 0 205 -82.5t83 -203.5q0 -123 -82.5 -205t-206.5 -82q-67 0 -123 28t-91 79v-94h-74zM132 276q0 -91 63.5 -156t153.5 -65q92 0 154 63.5t62 157.5q0 92 -61.5 154t-153.5 62t-155 -62.5t-63 -153.5z" />
<glyph unicode="c" horiz-adv-x="647" d="M42 275q0 119 85 202t208 83q92 0 165.5 -48.5t106.5 -130.5h-83q-65 111 -190 111q-91 0 -154 -63.5t-63 -155.5q0 -91 64 -154.5t156 -63.5q58 0 101 24.5t86 81.5h84q-92 -174 -268 -174q-126 0 -212 83t-86 205z" />
<glyph unicode="d" horiz-adv-x="685" d="M42 273q0 122 83.5 204.5t207.5 82.5q132 0 215 -100v279h74v-739h-74v99q-41 -59 -90.5 -85.5t-117.5 -26.5q-127 0 -212.5 82t-85.5 204zM117 276q0 -94 63.5 -157.5t157.5 -63.5q88 0 150.5 65t62.5 155t-64.5 153.5t-155.5 63.5q-89 0 -151.5 -63t-62.5 -153z" />
<glyph unicode="e" horiz-adv-x="650" d="M42 276q0 119 82.5 201.5t201.5 82.5q124 0 204.5 -84.5t80.5 -226.5h-495q4 -81 66.5 -137.5t146.5 -56.5q62 0 115 34.5t76 90.5h77q-27 -81 -101.5 -137t-164.5 -56q-121 0 -205 83.5t-84 205.5zM118 316h419q-19 82 -75.5 129t-136.5 47q-78 0 -135 -48.5t-72 -127.5 z" />
<glyph unicode="f" horiz-adv-x="314" d="M16 480v67h85q-3 192 210 192v-67q-76 0 -106.5 -28.5t-29.5 -96.5h136v-67h-136v-480h-74v480h-85z" />
<glyph unicode="g" horiz-adv-x="673" d="M42 271q0 124 80 206.5t200 82.5q133 0 214 -110v97h74v-449q0 -80 -11.5 -128.5t-39.5 -86.5q-74 -98 -222 -98q-103 0 -174 51t-101 147h72q41 -73 86 -101.5t115 -28.5q99 0 150 56.5t51 164.5v37q-63 -124 -209 -124q-120 0 -202.5 82t-82.5 202zM117 277 q0 -95 60 -158.5t150 -63.5q89 0 149 64.5t60 160.5q0 89 -61 150.5t-149 61.5q-91 0 -150 -60.5t-59 -154.5z" />
<glyph unicode="h" horiz-adv-x="610" d="M63 0v739h74v-263q58 84 174 84q110 0 173 -66.5t63 -199.5v-294h-74v294q0 99 -45.5 148.5t-123.5 49.5q-75 0 -121 -48t-46 -144v-300h-74z" />
<glyph unicode="i" horiz-adv-x="200" d="M63 0v547h74v-547h-74zM63 607v126h74v-126h-74z" />
<glyph unicode="j" horiz-adv-x="203" d="M-45 -121q62 4 86.5 39t24.5 120v509h74v-509q0 -117 -45.5 -171.5t-139.5 -58.5v71zM66 607v126h74v-126h-74z" />
<glyph unicode="k" horiz-adv-x="502" d="M63 0v739h74v-524l255 332h91l-213 -275l227 -272h-92l-182 219l-86 -106v-113h-74z" />
<glyph unicode="l" horiz-adv-x="200" d="M63 0v739h74v-739h-74z" />
<glyph unicode="m" horiz-adv-x="938" d="M63 0v547h74v-63q31 41 66.5 58.5t87.5 17.5q61 0 104 -25t75 -80q67 106 190 106q97 0 156 -60.5t59 -175.5v-325h-74v317q0 176 -145 176q-69 0 -109.5 -43.5t-40.5 -132.5v-317h-74v319q0 87 -40.5 130t-107.5 43q-69 0 -108 -45.5t-39 -127.5v-319h-74z" />
<glyph unicode="n" horiz-adv-x="610" d="M63 0v547h74v-71q69 84 176 84q108 0 171 -67.5t63 -205.5v-287h-74v287q0 205 -169 205q-78 0 -122.5 -47t-44.5 -144v-301h-74z" />
<glyph unicode="o" horiz-adv-x="655" d="M42 277q0 120 82.5 201.5t204.5 81.5q123 0 203.5 -81.5t80.5 -206.5q0 -123 -79 -204t-199 -81q-127 0 -210 82t-83 208zM117 275q0 -96 61 -158t155 -62q89 0 147 61t58 155q0 95 -59.5 158t-149.5 63q-91 0 -151.5 -62t-60.5 -155z" />
<glyph unicode="p" horiz-adv-x="682" d="M63 -192v739h74v-94q71 107 215 107q122 0 205 -83t83 -205q0 -120 -84 -202.5t-206 -82.5q-140 0 -213 107v-286h-74zM132 276q0 -95 62 -158t156 -63q91 0 153 62.5t62 154.5q0 94 -62 157t-154 63q-91 0 -154 -62.5t-63 -153.5z" />
<glyph unicode="q" horiz-adv-x="682" d="M42 273q0 122 83 204.5t205 82.5q145 0 215 -107v94h74v-739h-74v286q-73 -107 -213 -107q-122 0 -206 82.5t-84 203.5zM117 272q0 -92 62 -154.5t154 -62.5q91 0 154 62.5t63 152.5q0 95 -62 158.5t-155 63.5q-92 0 -154 -63t-62 -157z" />
<glyph unicode="r" horiz-adv-x="301" d="M63 0v547h74v-78q22 45 59 66.5t96 24.5v-73q-155 -15 -155 -168v-319h-74z" />
<glyph unicode="s" horiz-adv-x="388" d="M18 161h73q0 -49 28.5 -77.5t74.5 -28.5q40 0 66 27t26 68q0 40 -21.5 60t-84.5 45q-58 23 -71.5 30t-29.5 23q-41 38 -41 98q0 67 44 110.5t111 43.5t110.5 -41.5t43.5 -106.5h-75q0 38 -21.5 59t-58.5 21q-33 0 -56 -23t-23 -56q0 -47 50 -72q20 -10 103 -44 q95 -40 95 -140q0 -75 -46.5 -122.5t-120.5 -47.5q-79 0 -127.5 47.5t-48.5 126.5z" />
<glyph unicode="t" horiz-adv-x="339" d="M12 480v67h118v192h74v-192h123v-67h-123v-480h-74v480h-118z" />
<glyph unicode="u" horiz-adv-x="608" d="M63 252v295h74v-295q0 -197 164 -197q79 0 124.5 52t45.5 159v281h74v-547h-74v85q-53 -98 -176 -98q-232 0 -232 265z" />
<glyph unicode="v" d="M8 547h75l192 -460l196 460h75l-230 -547h-78z" />
<glyph unicode="w" horiz-adv-x="831" d="M7 547h74l174 -458l129 391h61l129 -391l178 458h72l-212 -547h-79l-119 363l-118 -363h-80z" />
<glyph unicode="x" horiz-adv-x="480" d="M8 0l190 279l-190 268h84l148 -211l147 211h85l-191 -268l191 -279h-85l-147 219l-148 -219h-84z" />
<glyph unicode="y" horiz-adv-x="536" d="M9 547h81l173 -436l185 436h79l-316 -739h-79l89 210z" />
<glyph unicode="z" horiz-adv-x="425" d="M10 0v67l302 413h-292v67h376v-63l-299 -417h318v-67h-405z" />
<glyph unicode="{" horiz-adv-x="351" d="M37 272v69q49 8 64 25t15 64v170q0 78 30 107t125 32v-67q-53 -5 -65.5 -17t-12.5 -54v-170q0 -52 -15.5 -77.5t-55.5 -40.5q-12 -4 -18 -7q53 -20 71 -43.5t18 -80.5v-170q0 -38 13.5 -52t53.5 -18l11 -1v-67q-94 1 -124.5 31.5t-30.5 107.5v170q0 46 -15 63t-64 26z " />
<glyph unicode="|" horiz-adv-x="672" d="M299 -125v864h74v-864h-74z" />
<glyph unicode="}" horiz-adv-x="351" d="M38 -59l11 1q24 2 38 7t20 15.5t7.5 19.5t1.5 28v170q0 57 18 80.5t71 43.5q-27 13 -35.5 18t-23.5 15.5t-19 21t-7.5 28t-3.5 42.5v170q0 19 -1.5 28t-7.5 19.5t-20 15.5t-38 7l-11 1v67q95 -3 125 -32.5t30 -106.5v-170q0 -47 14.5 -64t61.5 -25v-69q-47 -8 -61.5 -25 t-14.5 -64v-170q0 -78 -30.5 -108t-124.5 -31v67z" />
<glyph unicode="~" horiz-adv-x="606" d="M51 257q36 65 68.5 92.5t74.5 27.5q28 0 77 -19l65 -27q55 -23 80 -23q47 0 95 82l44 -47q-26 -51 -64 -81.5t-76 -30.5q-28 0 -93 26l-55 22q-53 21 -73 21q-32 0 -50.5 -18t-50.5 -72z" />
<glyph unicode="&#xa1;" horiz-adv-x="295" d="M110 -192v542h74v-542h-74zM110 421v126h74v-126h-74z" />
<glyph unicode="&#xa2;" d="M45 382q0 94 59.5 158t154.5 74v93h66v-93q64 -9 113 -49t71 -102h-83q-47 84 -143 84q-71 0 -117.5 -46.5t-46.5 -117.5q0 -70 47.5 -118t115.5 -48q77 0 140 73h81q-20 -55 -69 -92.5t-109 -45.5v-90h-66v90q-92 7 -153 72.5t-61 157.5z" />
<glyph unicode="&#xa3;" d="M18 347v67h75q-22 53 -22 98q0 105 66.5 172.5t168.5 67.5q100 0 168.5 -58.5t79.5 -152.5h-69q-15 68 -62 106t-116 38q-72 0 -117 -48t-45 -124q0 -47 28 -99h284v-67h-215q72 -77 72 -163q0 -51 -29 -117h57q90 0 133 41.5t43 110.5q0 19 -6 49h72q8 -31 8 -55 q0 -97 -63.5 -155t-184.5 -58h-285v67h139q42 46 42 116q0 46 -19.5 79.5t-76.5 84.5h-126z" />
<glyph unicode="&#xa4;" d="M26 303q0 83 47 149l-44 42l55 54l43 -42q73 47 149 47q85 0 150 -46l43 42l54 -55l-41 -42q46 -68 46 -152q0 -89 -47 -147l42 -42l-54 -53l-41 42q-42 -28 -75.5 -39t-76.5 -11q-77 0 -150 50l-42 -42l-53 54l41 41q-46 63 -46 150zM97 302q0 -77 52 -128.5t130 -51.5 q76 0 127 52t51 129t-50.5 128.5t-126.5 51.5q-80 0 -131.5 -51t-51.5 -130z" />
<glyph unicode="&#xa5;" d="M0 739h76l221 -412l216 412h76l-146 -276h103v-67h-139l-48 -92h180v-67h-206v-237h-73v237h-210v67h183l-49 92h-141v67h105z" />
<glyph unicode="&#xa6;" horiz-adv-x="672" d="M299 -125v346h74v-346h-74zM299 393v346h74v-346h-74z" />
<glyph unicode="&#xa7;" horiz-adv-x="615" d="M87 339q0 91 86 152q-38 41 -38 98q0 70 49 116.5t123 46.5q73 0 122 -40.5t54 -105.5h-71q-17 79 -105 79q-46 0 -75 -26.5t-29 -67.5q0 -58 59 -86l158 -74q109 -51 109 -142q0 -87 -76 -143q48 -51 48 -109q0 -76 -54 -127t-134 -51q-88 0 -146 57.5t-61 147.5h68 q5 -62 43 -100t96 -38q51 0 85.5 31.5t34.5 77.5q0 30 -22 53.5t-72 48.5l-143 70q-61 30 -85 59t-24 73zM155 350q0 -46 54 -72l198 -96q54 39 54 98q0 57 -61 85l-188 89q-57 -39 -57 -104z" />
<glyph unicode="&#xa8;" horiz-adv-x="369" d="M74 607v126h74v-126h-74zM221 607v126h74v-126h-74z" />
<glyph unicode="&#xa9;" horiz-adv-x="747" d="M21 341q0 146 103.5 250t249.5 104t250 -104t104 -250t-104 -249.5t-250 -103.5t-249.5 103.5t-103.5 249.5zM58 341q0 -131 92.5 -223.5t223.5 -92.5t224 92.5t93 223.5t-93 224t-224 93t-223.5 -93t-92.5 -224zM149 340q0 93 66.5 154.5t168.5 61.5q74 0 131.5 -34 t81.5 -92h-63q-49 74 -149 74q-76 0 -127.5 -46.5t-51.5 -116.5q0 -67 53 -115t127 -48q47 0 81.5 17.5t69.5 57.5h63q-68 -127 -213 -127q-102 0 -170 61.5t-68 152.5z" />
<glyph unicode="&#xaa;" horiz-adv-x="369" d="M31 319v51h308v-51h-308zM31 594q0 62 44.5 106.5t107.5 44.5q31 0 59.5 -14.5t42.5 -36.5v45h48v-291h-48v45q-41 -52 -103 -52q-61 0 -106 45.5t-45 107.5zM84 595q0 -42 30 -73.5t70 -31.5q39 0 68.5 31t29.5 71q0 42 -29.5 73t-68.5 31t-69.5 -30.5t-30.5 -70.5z" />
<glyph unicode="&#xab;" horiz-adv-x="425" d="M40 300l113 199l59 -32l-94 -167l94 -168l-59 -33zM211 300l115 199l59 -32l-94 -167l94 -168l-59 -33z" />
<glyph unicode="&#xac;" horiz-adv-x="606" d="M63 305v74h480v-221h-74v147h-406z" />
<glyph unicode="&#xad;" horiz-adv-x="332" d="M31 233v63h271v-63h-271z" />
<glyph unicode="&#xae;" horiz-adv-x="747" d="M21 341q0 146 103.5 250t249.5 104t250 -104t104 -250t-104 -249.5t-250 -103.5t-249.5 103.5t-103.5 249.5zM58 341q0 -131 92.5 -223.5t223.5 -92.5t224 92.5t93 223.5t-93 224t-224 93t-223.5 -93t-92.5 -224zM217 133v416h116q104 0 149.5 -34.5t45.5 -102.5 q0 -110 -122 -128l125 -151h-73l-161 197q101 -1 137.5 15.5t36.5 68.5q0 46 -33 64.5t-108 18.5h-56v-364h-57z" />
<glyph unicode="&#xaf;" horiz-adv-x="485" d="M74 638v64h337v-64h-337z" />
<glyph unicode="&#xb0;" horiz-adv-x="400" d="M50 534q0 64 44.5 108t109.5 44q62 0 104 -44.5t42 -108.5t-43.5 -108.5t-106.5 -44.5t-106.5 44.5t-43.5 109.5zM106 533q0 -40 28 -68t66 -28q39 0 66 28t27 68t-26.5 68t-64.5 28q-40 0 -68 -28t-28 -68z" />
<glyph unicode="&#xb1;" horiz-adv-x="606" d="M63 0v74h480v-74h-480zM63 287v74h203v203h74v-203h203v-74h-203v-146h-74v146h-203z" />
<glyph unicode="&#xb2;" horiz-adv-x="332" d="M12 288v51l163 150q56 51 70 70.5t14 48.5q0 34 -27 59t-64 25q-41 0 -66.5 -27t-25.5 -77v-5h-60q1 78 42 121t113 43q62 0 105.5 -41t43.5 -100q0 -35 -19.5 -67t-66.5 -75l-133 -121h217v-55h-306z" />
<glyph unicode="&#xb3;" horiz-adv-x="332" d="M13 439h61q3 -54 28 -79t63 -25q37 0 65 27t28 63q0 92 -130 92v54l21 -1q37 0 58.5 16.5t21.5 44.5q0 26 -18 43.5t-45 17.5q-29 0 -45.5 -19.5t-16.5 -57.5h-61q1 60 34.5 96t89.5 36q52 0 87.5 -34.5t35.5 -84.5q0 -26 -9 -43.5t-32 -38.5q70 -43 70 -119 q0 -60 -45.5 -103.5t-107.5 -43.5q-65 0 -107 42t-46 117z" />
<glyph unicode="&#xb4;" horiz-adv-x="375" d="M112 650l193 116l34 -58l-193 -114z" />
<glyph unicode="&#xb5;" horiz-adv-x="608" d="M63 -192v739h74v-281q0 -69 10.5 -102.5t42.5 -62.5q50 -47 117 -47q76 0 120 52t44 160v281h74v-547h-74v85q-50 -98 -164 -98q-111 0 -170 98v-277h-74z" />
<glyph unicode="&#xb6;" horiz-adv-x="564" d="M37 549q0 86 57 138t166 52h231v-872h-75v805h-114v-805h-75v488q-88 9 -139 61t-51 133z" />
<glyph unicode="&#xb7;" horiz-adv-x="277" d="M76 250q0 26 18.5 44.5t44.5 18.5t44.5 -18.5t18.5 -44.5t-18.5 -44.5t-44.5 -18.5t-44.5 18.5t-18.5 44.5z" />
<glyph unicode="&#xb8;" horiz-adv-x="324" d="M81 -166l53 6q10 -33 44 -33q21 0 34.5 14.5t13.5 36.5q0 24 -14 38.5t-37 14.5q-27 0 -46 -19l-32 19l38 94h39l-17 -53q21 5 33 5q41 0 69.5 -26.5t28.5 -67.5q0 -48 -30.5 -81t-80.5 -33q-37 0 -62 23t-34 62z" />
<glyph unicode="&#xb9;" horiz-adv-x="332" d="M98 684v55h135v-451h-60v396h-75z" />
<glyph unicode="&#xba;" horiz-adv-x="369" d="M32 319v51h305v-51h-305zM32 596q0 60 45.5 104.5t107.5 44.5t107 -45t45 -106q0 -62 -45.5 -107t-107.5 -45q-63 0 -107.5 45t-44.5 109zM85 594q0 -43 29 -73t71 -30q40 0 69.5 30t29.5 71q0 44 -28.5 74t-71.5 30q-41 0 -70 -30t-29 -72z" />
<glyph unicode="&#xbb;" horiz-adv-x="425" d="M40 132l94 168l-94 167l59 32l115 -199l-115 -201zM213 132l94 168l-94 167l59 32l113 -199l-113 -201z" />
<glyph unicode="&#xbc;" horiz-adv-x="831" d="M101 684v55h135v-451h-60v396h-75zM211 0l341 739h55l-342 -739h-54zM470 79v50l226 322h65v-317h42v-55h-42v-79h-60v79h-231zM545 134h156v225z" />
<glyph unicode="&#xbd;" horiz-adv-x="831" d="M96 684v55h135v-451h-60v396h-75zM206 0l341 739h55l-342 -739h-54zM506 0v51l163 150q56 51 70 70.5t14 48.5q0 34 -27 59t-64 25q-41 0 -66.5 -27t-25.5 -77v-5h-60q1 78 42 121t113 43q62 0 105.5 -41t43.5 -100q0 -35 -19.5 -67t-66.5 -75l-133 -121h217v-55h-306z " />
<glyph unicode="&#xbe;" horiz-adv-x="831" d="M13 439h61q3 -55 28 -79.5t63 -24.5q37 0 65 27t28 63q0 92 -130 92v54l21 -1q37 0 58.5 16.5t21.5 44.5q0 26 -18 43.5t-45 17.5q-29 0 -45.5 -19.5t-16.5 -57.5h-61q1 60 34.5 96t89.5 36q52 0 87.5 -34.5t35.5 -84.5q0 -26 -9 -43.5t-32 -38.5q70 -44 70 -119 q0 -60 -45.5 -103.5t-107.5 -43.5q-65 0 -108.5 42.5t-44.5 116.5zM239 0l341 739h55l-342 -739h-54zM470 79v50l226 322h65v-317h42v-55h-42v-79h-60v79h-231zM545 134h156v225z" />
<glyph unicode="&#xbf;" horiz-adv-x="591" d="M66 12q0 48 20.5 87t69.5 83q56 50 78.5 87.5t23.5 84.5h70q-1 -61 -24 -105.5t-80 -98.5q-51 -47 -67.5 -75t-16.5 -65q0 -64 43 -106t109 -42q75 0 119.5 44.5t44.5 132.5h70q0 -117 -65.5 -180.5t-168.5 -63.5q-98 0 -162 61.5t-64 155.5zM256 421v126h74v-126h-74z " />
<glyph unicode="&#xc0;" horiz-adv-x="740" d="M11 0l317 739h83l318 -739h-81l-107 249h-344l-108 -249h-78zM218 890l34 58l193 -116l-34 -56zM225 316h287l-142 339z" />
<glyph unicode="&#xc1;" horiz-adv-x="740" d="M11 0l317 739h83l318 -739h-81l-107 249h-344l-108 -249h-78zM225 316h287l-142 339zM294 832l193 116l34 -58l-193 -114z" />
<glyph unicode="&#xc2;" horiz-adv-x="740" d="M11 0l317 739h83l318 -739h-81l-107 249h-344l-108 -249h-78zM193 789l145 126h66l143 -126h-89l-86 74l-88 -74h-91zM225 316h287l-142 339z" />
<glyph unicode="&#xc3;" horiz-adv-x="740" d="M11 0l317 739h83l318 -739h-81l-107 249h-344l-108 -249h-78zM225 316h287l-142 339zM225 851q38 49 93 49q9 0 50.5 -15.5t56.5 -15.5q27 0 57 31l33 -46q-12 -20 -39 -34.5t-52 -14.5q-21 0 -66 22q-23 10 -40 10q-14 0 -23.5 -4.5t-29.5 -21.5l-7 -6z" />
<glyph unicode="&#xc4;" horiz-adv-x="740" d="M11 0l317 739h83l318 -739h-81l-107 249h-344l-108 -249h-78zM225 316h287l-142 339zM259 789v126h74v-126h-74zM406 789v126h74v-126h-74z" />
<glyph unicode="&#xc5;" horiz-adv-x="740" d="M11 0l317 739h83l318 -739h-81l-107 249h-344l-108 -249h-78zM225 316h287l-142 339zM269 864q0 43 29.5 72.5t72.5 29.5q41 0 70.5 -30t29.5 -71q0 -42 -29.5 -71.5t-71.5 -29.5t-71.5 29.5t-29.5 70.5zM314 864q0 -23 16.5 -39t39.5 -16t39.5 16.5t16.5 39.5 t-16.5 39.5t-39.5 16.5t-39.5 -16.5t-16.5 -40.5z" />
<glyph unicode="&#xc6;" horiz-adv-x="992" d="M11 0l511 739h414v-67h-319v-265h308v-67h-308v-273h319v-67h-393v250h-271l-173 -250h-88zM319 317h224v327z" />
<glyph unicode="&#xc7;" horiz-adv-x="813" d="M44 367q0 166 109 275.5t274 109.5q115 0 206 -55t134 -150h-83q-87 137 -254 137q-132 0 -221.5 -90.5t-89.5 -223.5q0 -130 92 -222.5t220 -92.5q80 0 139 32.5t118 106.5h82q-110 -204 -332 -207l-11 -35q21 5 33 5q41 0 69.5 -26.5t28.5 -67.5q0 -48 -30.5 -81 t-80.5 -33q-37 0 -62 23t-34 62l53 6q10 -33 44 -33q21 0 34.5 14.5t13.5 36.5q0 24 -14 38.5t-37 14.5q-27 0 -46 -19l-32 19l31 77q-153 12 -253.5 119t-100.5 260z" />
<glyph unicode="&#xc8;" horiz-adv-x="536" d="M76 0v739h404v-67h-330v-265h319v-67h-319v-273h330v-67h-404zM127 890l34 58l193 -116l-34 -56z" />
<glyph unicode="&#xc9;" horiz-adv-x="536" d="M76 0v739h404v-67h-330v-265h319v-67h-319v-273h330v-67h-404zM202 832l193 116l34 -58l-193 -114z" />
<glyph unicode="&#xca;" horiz-adv-x="536" d="M76 0v739h404v-67h-330v-265h319v-67h-319v-273h330v-67h-404zM101 789l145 126h66l143 -126h-89l-86 74l-88 -74h-91z" />
<glyph unicode="&#xcb;" horiz-adv-x="536" d="M76 0v739h404v-67h-330v-265h319v-67h-319v-273h330v-67h-404zM168 789v126h74v-126h-74zM315 789v126h74v-126h-74z" />
<glyph unicode="&#xcc;" horiz-adv-x="226" d="M-43 890l34 58l193 -116l-34 -56zM76 0v739h74v-739h-74z" />
<glyph unicode="&#xcd;" horiz-adv-x="226" d="M42 832l193 116l34 -58l-193 -114zM76 0v739h74v-739h-74z" />
<glyph unicode="&#xce;" horiz-adv-x="226" d="M-64 789l145 126h66l143 -126h-89l-86 74l-88 -74h-91zM76 0v739h74v-739h-74z" />
<glyph unicode="&#xcf;" horiz-adv-x="226" d="M3 789v126h74v-126h-74zM76 0v739h74v-739h-74zM150 789v126h74v-126h-74z" />
<glyph unicode="&#xd0;" horiz-adv-x="790" d="M26 347v67h96v325h174q101 0 165.5 -13.5t116.5 -44.5q82 -49 125 -129.5t43 -184.5q0 -167 -108 -267t-317 -100h-199v347h-96zM196 67h103q98 0 160 15.5t106 50.5q106 86 106 237q0 83 -35 149.5t-99 104.5q-79 48 -238 48h-103v-258h205v-67h-205v-280z" />
<glyph unicode="&#xd1;" horiz-adv-x="740" d="M76 0v739h100l414 -613v613h74v-739h-74l-440 650v-650h-74zM226 851q38 49 93 49q9 0 50.5 -15.5t56.5 -15.5q27 0 57 31l33 -46q-12 -20 -39 -34.5t-52 -14.5q-21 0 -66 22q-23 10 -40 10q-14 0 -23.5 -4.5t-29.5 -21.5l-7 -6z" />
<glyph unicode="&#xd2;" horiz-adv-x="869" d="M44 374q0 154 116 266t275 112q161 0 275.5 -112.5t114.5 -270.5q0 -157 -115 -269.5t-275 -112.5q-163 0 -277 113t-114 274zM119 372q0 -131 92.5 -224t223.5 -93q129 0 222 92.5t93 220.5q0 130 -93 223t-222 93q-128 0 -222 -92.5t-94 -219.5zM284 890l34 58 l193 -116l-34 -56z" />
<glyph unicode="&#xd3;" horiz-adv-x="869" d="M44 374q0 154 116 266t275 112q161 0 275.5 -112.5t114.5 -270.5q0 -157 -115 -269.5t-275 -112.5q-163 0 -277 113t-114 274zM119 372q0 -131 92.5 -224t223.5 -93q129 0 222 92.5t93 220.5q0 130 -93 223t-222 93q-128 0 -222 -92.5t-94 -219.5zM359 832l193 116 l34 -58l-193 -114z" />
<glyph unicode="&#xd4;" horiz-adv-x="869" d="M44 374q0 154 116 266t275 112q161 0 275.5 -112.5t114.5 -270.5q0 -157 -115 -269.5t-275 -112.5q-163 0 -277 113t-114 274zM119 372q0 -131 92.5 -224t223.5 -93q129 0 222 92.5t93 220.5q0 130 -93 223t-222 93q-128 0 -222 -92.5t-94 -219.5zM258 789l145 126h66 l143 -126h-89l-86 74l-88 -74h-91z" />
<glyph unicode="&#xd5;" horiz-adv-x="869" d="M44 374q0 154 116 266t275 112q161 0 275.5 -112.5t114.5 -270.5q0 -157 -115 -269.5t-275 -112.5q-163 0 -277 113t-114 274zM119 372q0 -131 92.5 -224t223.5 -93q129 0 222 92.5t93 220.5q0 130 -93 223t-222 93q-128 0 -222 -92.5t-94 -219.5zM291 851q38 49 93 49 q9 0 50.5 -15.5t56.5 -15.5q27 0 57 31l33 -46q-12 -20 -39 -34.5t-52 -14.5q-21 0 -66 22q-23 10 -40 10q-14 0 -23.5 -4.5t-29.5 -21.5l-7 -6z" />
<glyph unicode="&#xd6;" horiz-adv-x="869" d="M44 374q0 154 116 266t275 112q161 0 275.5 -112.5t114.5 -270.5q0 -157 -115 -269.5t-275 -112.5q-163 0 -277 113t-114 274zM119 372q0 -131 92.5 -224t223.5 -93q129 0 222 92.5t93 220.5q0 130 -93 223t-222 93q-128 0 -222 -92.5t-94 -219.5zM325 789v126h74v-126 h-74zM472 789v126h74v-126h-74z" />
<glyph unicode="&#xd7;" horiz-adv-x="606" d="M107 106l144 144l-144 144l52 52l144 -144l144 144l52 -52l-144 -144l144 -144l-52 -52l-144 144l-144 -144z" />
<glyph unicode="&#xd8;" horiz-adv-x="868" d="M44 370q0 161 112 271.5t275 110.5q123 0 205 -56l94 125l54 -42l-92 -123q132 -111 132 -284q0 -161 -112.5 -273t-274.5 -112q-112 0 -204 55l-94 -125l-56 41l93 124q-132 110 -132 288zM119 366q0 -134 100 -228l376 503q-71 43 -165 43q-131 0 -221 -92.5 t-90 -225.5zM274 97q80 -42 162 -42q131 0 222 91.5t91 222.5q0 135 -99 231z" />
<glyph unicode="&#xd9;" horiz-adv-x="655" d="M76 278v461h74v-461q0 -223 178 -223q177 0 177 223v461h74v-461q0 -146 -67.5 -218.5t-184.5 -72.5q-116 0 -183.5 72.5t-67.5 218.5zM176 890l34 58l193 -116l-34 -56z" />
<glyph unicode="&#xda;" horiz-adv-x="655" d="M76 278v461h74v-461q0 -223 178 -223q177 0 177 223v461h74v-461q0 -146 -67.5 -218.5t-184.5 -72.5q-116 0 -183.5 72.5t-67.5 218.5zM252 832l193 116l34 -58l-193 -114z" />
<glyph unicode="&#xdb;" horiz-adv-x="655" d="M76 278v461h74v-461q0 -223 178 -223q177 0 177 223v461h74v-461q0 -146 -67.5 -218.5t-184.5 -72.5q-116 0 -183.5 72.5t-67.5 218.5zM151 789l145 126h66l143 -126h-89l-86 74l-88 -74h-91z" />
<glyph unicode="&#xdc;" horiz-adv-x="655" d="M76 278v461h74v-461q0 -223 178 -223q177 0 177 223v461h74v-461q0 -146 -67.5 -218.5t-184.5 -72.5q-116 0 -183.5 72.5t-67.5 218.5zM217 789v126h74v-126h-74zM364 789v126h74v-126h-74z" />
<glyph unicode="&#xdd;" horiz-adv-x="592" d="M2 739h82l210 -414l215 414h81l-258 -492v-247h-74v247zM219 832l193 116l34 -58l-193 -114z" />
<glyph unicode="&#xde;" horiz-adv-x="592" d="M76 0v739h67v-133h137q151 0 218 -53.5t67 -170.5q0 -109 -63.5 -162.5t-209.5 -53.5h-142v-166h-74zM150 233h137q110 0 156.5 34.5t46.5 114.5q0 44 -12 74t-29 46t-51 24.5t-63.5 10.5t-79.5 2h-105v-306z" />
<glyph unicode="&#xdf;" d="M59 0v481q0 271 204 271q91 0 151 -59.5t60 -148.5q0 -104 -85 -155q65 -21 100 -70t35 -120q0 -91 -58.5 -151.5t-146.5 -60.5q-130 0 -186 122v-109h-74zM133 203h51q1 -65 38.5 -106.5t94.5 -41.5q56 0 94 41t38 101q0 68 -48 107t-132 39q-12 0 -45 -2v67h9 q78 0 122 37t44 103q0 59 -38 97.5t-96 38.5q-68 0 -100 -48t-32 -155v-278z" />
<glyph unicode="&#xe0;" horiz-adv-x="683" d="M42 272q0 123 82.5 205.5t205.5 82.5q138 0 216 -110v97h74v-547h-74v96q-44 -59 -92.5 -84t-118.5 -25q-126 0 -209.5 81.5t-83.5 203.5zM117 277q0 -94 63 -158t156 -64q88 0 149 64t61 157q0 91 -62 153.5t-152 62.5q-89 0 -152 -63t-63 -152zM179 708l34 58l193 -116 l-34 -56z" />
<glyph unicode="&#xe1;" horiz-adv-x="683" d="M42 272q0 123 82.5 205.5t205.5 82.5q138 0 216 -110v97h74v-547h-74v96q-44 -59 -92.5 -84t-118.5 -25q-126 0 -209.5 81.5t-83.5 203.5zM117 277q0 -94 63 -158t156 -64q88 0 149 64t61 157q0 91 -62 153.5t-152 62.5q-89 0 -152 -63t-63 -152zM254 650l193 116l34 -58 l-193 -114z" />
<glyph unicode="&#xe2;" horiz-adv-x="683" d="M42 272q0 123 82.5 205.5t205.5 82.5q138 0 216 -110v97h74v-547h-74v96q-44 -59 -92.5 -84t-118.5 -25q-126 0 -209.5 81.5t-83.5 203.5zM117 277q0 -94 63 -158t156 -64q88 0 149 64t61 157q0 91 -62 153.5t-152 62.5q-89 0 -152 -63t-63 -152zM153 607l145 126h66 l143 -126h-89l-86 74l-88 -74h-91z" />
<glyph unicode="&#xe3;" horiz-adv-x="683" d="M42 272q0 123 82.5 205.5t205.5 82.5q138 0 216 -110v97h74v-547h-74v96q-44 -59 -92.5 -84t-118.5 -25q-126 0 -209.5 81.5t-83.5 203.5zM117 277q0 -94 63 -158t156 -64q88 0 149 64t61 157q0 91 -62 153.5t-152 62.5q-89 0 -152 -63t-63 -152zM185 669q38 49 93 49 q9 0 50.5 -15.5t56.5 -15.5q27 0 57 31l33 -46q-12 -20 -39 -34.5t-52 -14.5q-21 0 -66 22q-23 10 -40 10q-14 0 -23.5 -4.5t-29.5 -21.5l-7 -6z" />
<glyph unicode="&#xe4;" horiz-adv-x="683" d="M42 272q0 123 82.5 205.5t205.5 82.5q138 0 216 -110v97h74v-547h-74v96q-44 -59 -92.5 -84t-118.5 -25q-126 0 -209.5 81.5t-83.5 203.5zM117 277q0 -94 63 -158t156 -64q88 0 149 64t61 157q0 91 -62 153.5t-152 62.5q-89 0 -152 -63t-63 -152zM219 607v126h74v-126 h-74zM366 607v126h74v-126h-74z" />
<glyph unicode="&#xe5;" horiz-adv-x="683" d="M42 272q0 123 82.5 205.5t205.5 82.5q138 0 216 -110v97h74v-547h-74v96q-44 -59 -92.5 -84t-118.5 -25q-126 0 -209.5 81.5t-83.5 203.5zM117 277q0 -94 63 -158t156 -64q88 0 149 64t61 157q0 91 -62 153.5t-152 62.5q-89 0 -152 -63t-63 -152zM229 679q0 43 29.5 72.5 t72.5 29.5q41 0 70.5 -30t29.5 -71q0 -42 -29.5 -71.5t-71.5 -29.5t-71.5 29.5t-29.5 70.5zM274 679q0 -23 16.5 -39t39.5 -16t39.5 16.5t16.5 39.5t-16.5 39.5t-39.5 16.5t-39.5 -16.5t-16.5 -40.5z" />
<glyph unicode="&#xe6;" horiz-adv-x="1157" d="M42 272q0 120 82 204t206 84q139 0 218 -108v95h71v-95q86 108 216 108q122 0 202.5 -82t80.5 -231h-495q7 -82 69 -137t147 -55q63 0 114.5 33.5t74.5 89.5h77q-29 -86 -102 -138.5t-164 -52.5q-130 0 -220 105v-92h-71v92q-46 -55 -97.5 -80t-119.5 -25q-123 0 -206 82 t-83 203zM118 274q0 -92 62 -155.5t153 -63.5t154 63.5t63 155.5q0 95 -61.5 156.5t-155.5 61.5q-92 0 -153.5 -62.5t-61.5 -155.5zM626 314h420q-15 81 -72.5 129.5t-137.5 48.5q-82 0 -140 -49.5t-70 -128.5z" />
<glyph unicode="&#xe7;" horiz-adv-x="647" d="M42 275q0 119 85 202t208 83q92 0 165.5 -48.5t106.5 -130.5h-83q-65 111 -190 111q-91 0 -154 -63.5t-63 -155.5q0 -91 64 -154.5t156 -63.5q58 0 101 24.5t86 81.5h84q-90 -171 -260 -174l-11 -35q21 5 33 5q41 0 69.5 -26.5t28.5 -67.5q0 -48 -30.5 -81t-80.5 -33 q-37 0 -62 23t-34 62l53 6q10 -33 44 -33q21 0 34.5 14.5t13.5 36.5q0 24 -14 38.5t-37 14.5q-27 0 -46 -19l-32 19l31 78q-115 11 -190.5 91.5t-75.5 194.5z" />
<glyph unicode="&#xe8;" horiz-adv-x="650" d="M42 276q0 119 82.5 201.5t201.5 82.5q124 0 204.5 -84.5t80.5 -226.5h-495q4 -81 66.5 -137.5t146.5 -56.5q62 0 115 34.5t76 90.5h77q-27 -81 -101.5 -137t-164.5 -56q-121 0 -205 83.5t-84 205.5zM118 316h419q-19 82 -75.5 129t-136.5 47q-78 0 -135 -48.5t-72 -127.5 zM175 708l34 58l193 -116l-34 -56z" />
<glyph unicode="&#xe9;" horiz-adv-x="650" d="M42 276q0 119 82.5 201.5t201.5 82.5q124 0 204.5 -84.5t80.5 -226.5h-495q4 -81 66.5 -137.5t146.5 -56.5q62 0 115 34.5t76 90.5h77q-27 -81 -101.5 -137t-164.5 -56q-121 0 -205 83.5t-84 205.5zM118 316h419q-19 82 -75.5 129t-136.5 47q-78 0 -135 -48.5t-72 -127.5 zM250 650l193 116l34 -58l-193 -114z" />
<glyph unicode="&#xea;" horiz-adv-x="650" d="M42 276q0 119 82.5 201.5t201.5 82.5q124 0 204.5 -84.5t80.5 -226.5h-495q4 -81 66.5 -137.5t146.5 -56.5q62 0 115 34.5t76 90.5h77q-27 -81 -101.5 -137t-164.5 -56q-121 0 -205 83.5t-84 205.5zM118 316h419q-19 82 -75.5 129t-136.5 47q-78 0 -135 -48.5t-72 -127.5 zM149 607l145 126h66l143 -126h-89l-86 74l-88 -74h-91z" />
<glyph unicode="&#xeb;" horiz-adv-x="650" d="M42 276q0 119 82.5 201.5t201.5 82.5q124 0 204.5 -84.5t80.5 -226.5h-495q4 -81 66.5 -137.5t146.5 -56.5q62 0 115 34.5t76 90.5h77q-27 -81 -101.5 -137t-164.5 -56q-121 0 -205 83.5t-84 205.5zM118 316h419q-19 82 -75.5 129t-136.5 47q-78 0 -135 -48.5t-72 -127.5 zM215 607v126h74v-126h-74zM362 607v126h74v-126h-74z" />
<glyph unicode="&#xec;" horiz-adv-x="200" d="M-56 708l34 58l193 -116l-34 -56zM63 0v547h74v-547h-74z" />
<glyph unicode="&#xed;" horiz-adv-x="200" d="M29 650l193 116l34 -58l-193 -114zM63 0v547h74v-547h-74z" />
<glyph unicode="&#xee;" horiz-adv-x="200" d="M-77 607l145 126h66l143 -126h-89l-86 74l-88 -74h-91zM63 0v547h74v-547h-74z" />
<glyph unicode="&#xef;" horiz-adv-x="200" d="M-11 607v126h74v-126h-74zM63 0v547h74v-547h-74zM136 607v126h74v-126h-74z" />
<glyph unicode="&#xf0;" horiz-adv-x="655" d="M42 274q0 120 78.5 201t195.5 81q41 0 96 -18q-63 64 -95 92l-87 -39l-36 46l79 35q-17 17 -33 31l-27 24l53 29q41 -30 68 -55l95 42l39 -44l-89 -39q119 -105 176.5 -193t57.5 -188q0 -129 -78 -210.5t-201 -81.5q-126 0 -209 81.5t-83 205.5zM117 275q0 -96 61 -158 t155 -62q90 0 147.5 61t57.5 156t-59.5 157.5t-149.5 62.5q-91 0 -151.5 -62t-60.5 -155z" />
<glyph unicode="&#xf1;" horiz-adv-x="610" d="M63 0v547h74v-71q69 84 176 84q108 0 171 -67.5t63 -205.5v-287h-74v287q0 205 -169 205q-78 0 -122.5 -47t-44.5 -144v-301h-74zM160 669q38 49 93 49q9 0 50.5 -15.5t56.5 -15.5q27 0 57 31l33 -46q-12 -20 -39 -34.5t-52 -14.5q-21 0 -66 22q-23 10 -40 10 q-14 0 -23.5 -4.5t-29.5 -21.5l-7 -6z" />
<glyph unicode="&#xf2;" horiz-adv-x="655" d="M42 277q0 120 82.5 201.5t204.5 81.5q123 0 203.5 -81.5t80.5 -206.5q0 -123 -79 -204t-199 -81q-127 0 -210 82t-83 208zM117 275q0 -96 61 -158t155 -62q89 0 147 61t58 155q0 95 -59.5 158t-149.5 63q-91 0 -151.5 -62t-60.5 -155zM178 708l34 58l193 -116l-34 -56z " />
<glyph unicode="&#xf3;" horiz-adv-x="655" d="M42 277q0 120 82.5 201.5t204.5 81.5q123 0 203.5 -81.5t80.5 -206.5q0 -123 -79 -204t-199 -81q-127 0 -210 82t-83 208zM117 275q0 -96 61 -158t155 -62q89 0 147 61t58 155q0 95 -59.5 158t-149.5 63q-91 0 -151.5 -62t-60.5 -155zM253 650l193 116l34 -58l-193 -114z " />
<glyph unicode="&#xf4;" horiz-adv-x="655" d="M42 277q0 120 82.5 201.5t204.5 81.5q123 0 203.5 -81.5t80.5 -206.5q0 -123 -79 -204t-199 -81q-127 0 -210 82t-83 208zM117 275q0 -96 61 -158t155 -62q89 0 147 61t58 155q0 95 -59.5 158t-149.5 63q-91 0 -151.5 -62t-60.5 -155zM152 607l145 126h66l143 -126h-89 l-86 74l-88 -74h-91z" />
<glyph unicode="&#xf5;" horiz-adv-x="655" d="M42 277q0 120 82.5 201.5t204.5 81.5q123 0 203.5 -81.5t80.5 -206.5q0 -123 -79 -204t-199 -81q-127 0 -210 82t-83 208zM117 275q0 -96 61 -158t155 -62q89 0 147 61t58 155q0 95 -59.5 158t-149.5 63q-91 0 -151.5 -62t-60.5 -155zM184 669q38 49 93 49 q9 0 50.5 -15.5t56.5 -15.5q27 0 57 31l33 -46q-12 -20 -39 -34.5t-52 -14.5q-21 0 -66 22q-23 10 -40 10q-14 0 -23.5 -4.5t-29.5 -21.5l-7 -6z" />
<glyph unicode="&#xf6;" horiz-adv-x="655" d="M42 277q0 120 82.5 201.5t204.5 81.5q123 0 203.5 -81.5t80.5 -206.5q0 -123 -79 -204t-199 -81q-127 0 -210 82t-83 208zM117 275q0 -96 61 -158t155 -62q89 0 147 61t58 155q0 95 -59.5 158t-149.5 63q-91 0 -151.5 -62t-60.5 -155zM218 607v126h74v-126h-74zM365 607 v126h74v-126h-74z" />
<glyph unicode="&#xf7;" horiz-adv-x="606" d="M63 213v74h480v-74h-480zM240 65q0 26 18.5 44.5t44.5 18.5t44.5 -18.5t18.5 -44.5t-18.5 -44.5t-44.5 -18.5t-44.5 18.5t-18.5 44.5zM240 435q0 26 18.5 44.5t44.5 18.5t44.5 -18.5t18.5 -44.5t-18.5 -44.5t-44.5 -18.5t-44.5 18.5t-18.5 44.5z" />
<glyph unicode="&#xf8;" horiz-adv-x="653" d="M42 272q0 120 83.5 204t202.5 84q80 0 146 -41l57 75l53 -42l-56 -74q83 -76 83 -197q0 -128 -79.5 -211t-203.5 -83q-73 0 -150 41l-52 -67l-53 40l51 67q-45 52 -63.5 98.5t-18.5 105.5zM117 266q0 -76 49 -145l268 347q-48 24 -105 24q-90 0 -151 -65t-61 -161z M218 79q53 -24 105 -24q94 0 153.5 63t59.5 162q0 85 -49 146z" />
<glyph unicode="&#xf9;" horiz-adv-x="608" d="M63 252v295h74v-295q0 -197 164 -197q79 0 124.5 52t45.5 159v281h74v-547h-74v85q-53 -98 -176 -98q-232 0 -232 265zM153 708l34 58l193 -116l-34 -56z" />
<glyph unicode="&#xfa;" horiz-adv-x="608" d="M63 252v295h74v-295q0 -197 164 -197q79 0 124.5 52t45.5 159v281h74v-547h-74v85q-53 -98 -176 -98q-232 0 -232 265zM228 650l193 116l34 -58l-193 -114z" />
<glyph unicode="&#xfb;" horiz-adv-x="608" d="M63 252v295h74v-295q0 -197 164 -197q79 0 124.5 52t45.5 159v281h74v-547h-74v85q-53 -98 -176 -98q-232 0 -232 265zM127 607l145 126h66l143 -126h-89l-86 74l-88 -74h-91z" />
<glyph unicode="&#xfc;" horiz-adv-x="608" d="M63 252v295h74v-295q0 -197 164 -197q79 0 124.5 52t45.5 159v281h74v-547h-74v85q-53 -98 -176 -98q-232 0 -232 265zM193 607v126h74v-126h-74zM340 607v126h74v-126h-74z" />
<glyph unicode="&#xfd;" horiz-adv-x="536" d="M9 547h81l173 -436l185 436h79l-316 -739h-79l89 210zM193 650l193 116l34 -58l-193 -114z" />
<glyph unicode="&#xfe;" horiz-adv-x="682" d="M63 -192v931h74v-286q71 107 215 107q122 0 205 -83t83 -205q0 -120 -84 -202.5t-206 -82.5q-140 0 -213 107v-286h-74zM132 276q0 -95 62 -158t156 -63q91 0 153 62.5t62 154.5q0 94 -62 157t-154 63q-91 0 -154 -62.5t-63 -153.5z" />
<glyph unicode="&#xff;" horiz-adv-x="536" d="M9 547h81l173 -436l185 436h79l-316 -739h-79l89 210zM158 607v126h74v-126h-74zM305 607v126h74v-126h-74z" />
<glyph unicode="&#x152;" horiz-adv-x="1194" d="M44 371q0 163 110.5 272t277.5 109q104 0 185.5 -41.5t127.5 -118.5v147h393v-67h-319v-265h308v-67h-308v-273h319v-67h-393v151q-95 -164 -300 -164q-173 0 -287 109t-114 275zM119 375q0 -138 91 -229t229 -91q133 0 220 90t87 227q0 136 -88.5 224t-225.5 88 q-134 0 -223.5 -89t-89.5 -220z" />
<glyph unicode="&#x153;" horiz-adv-x="1137" d="M42 274q0 121 81.5 203.5t200.5 82.5q159 0 247 -146q85 146 246 146q119 0 200 -79t81 -195q0 -4 -2 -38h-488q5 -83 69 -138t147 -55q128 0 188 124h74q-21 -78 -92.5 -135t-165.5 -57q-86 0 -154 40t-103 111q-45 -79 -102.5 -115t-137.5 -36q-122 0 -205.5 83 t-83.5 204zM117 273q0 -92 61.5 -155t152.5 -63q87 0 146 63t59 155q0 94 -60 156.5t-150 62.5t-149.5 -62.5t-59.5 -156.5zM608 315h419q-13 79 -72 128t-140 49q-76 0 -131.5 -47t-75.5 -130z" />
<glyph unicode="&#x178;" horiz-adv-x="592" d="M2 739h82l210 -414l215 414h81l-258 -492v-247h-74v247zM185 789v126h74v-126h-74zM332 789v126h74v-126h-74z" />
<glyph unicode="&#x2c6;" horiz-adv-x="502" d="M74 607l145 126h66l143 -126h-89l-86 74l-88 -74h-91z" />
<glyph unicode="&#x2dc;" horiz-adv-x="439" d="M75 669q38 49 93 49q9 0 50.5 -15.5t56.5 -15.5q27 0 57 31l33 -46q-12 -20 -39 -34.5t-52 -14.5q-21 0 -66 22q-23 10 -40 10q-14 0 -23.5 -4.5t-29.5 -21.5l-7 -6z" />
<glyph unicode="&#x2000;" horiz-adv-x="483" />
<glyph unicode="&#x2001;" horiz-adv-x="966" />
<glyph unicode="&#x2002;" horiz-adv-x="483" />
<glyph unicode="&#x2003;" horiz-adv-x="966" />
<glyph unicode="&#x2004;" horiz-adv-x="322" />
<glyph unicode="&#x2005;" horiz-adv-x="241" />
<glyph unicode="&#x2006;" horiz-adv-x="161" />
<glyph unicode="&#x2007;" horiz-adv-x="161" />
<glyph unicode="&#x2008;" horiz-adv-x="120" />
<glyph unicode="&#x2009;" horiz-adv-x="193" />
<glyph unicode="&#x200a;" horiz-adv-x="53" />
<glyph unicode="&#x2010;" horiz-adv-x="332" d="M31 233v63h271v-63h-271z" />
<glyph unicode="&#x2011;" horiz-adv-x="332" d="M31 233v63h271v-63h-271z" />
<glyph unicode="&#x2012;" horiz-adv-x="332" d="M31 233v63h271v-63h-271z" />
<glyph unicode="&#x2013;" horiz-adv-x="500" d="M0 233v63h500v-63h-500z" />
<glyph unicode="&#x2014;" horiz-adv-x="1000" d="M0 233v63h1000v-63h-1000z" />
<glyph unicode="&#x2018;" horiz-adv-x="351" d="M98 739h74l88 -192h-74z" />
<glyph unicode="&#x2019;" horiz-adv-x="351" d="M91 547l88 192h74l-88 -192h-74z" />
<glyph unicode="&#x201a;" horiz-adv-x="354" d="M89 -67l88 193h74l-88 -193h-74z" />
<glyph unicode="&#x201c;" horiz-adv-x="502" d="M96 739h74l88 -192h-74zM244 739h74l88 -192h-74z" />
<glyph unicode="&#x201d;" horiz-adv-x="484" d="M87 547l88 192h74l-88 -192h-74zM231 547l88 192h74l-88 -192h-74z" />
<glyph unicode="&#x201e;" horiz-adv-x="502" d="M89 -67l88 193h74l-88 -193h-74zM236 -67l88 193h74l-88 -193h-74z" />
<glyph unicode="&#x2022;" horiz-adv-x="606" d="M118 303q0 77 54 131t131 54t131 -53.5t54 -130.5q0 -78 -54 -132t-133 -54q-75 0 -129 54.5t-54 130.5z" />
<glyph unicode="&#x2026;" horiz-adv-x="1000" d="M130 0v126h74v-126h-74zM463 0v126h74v-126h-74zM796 0v126h74v-126h-74z" />
<glyph unicode="&#x202f;" horiz-adv-x="193" />
<glyph unicode="&#x2039;" horiz-adv-x="251" d="M40 300l112 199l59 -32l-93 -167l93 -168l-59 -33z" />
<glyph unicode="&#x203a;" horiz-adv-x="251" d="M40 132l93 168l-93 167l59 32l112 -199l-112 -201z" />
<glyph unicode="&#x205f;" horiz-adv-x="241" />
<glyph unicode="&#x20ac;" d="M-32 400l24 59h75q29 161 98.5 227t187.5 66q67 0 115.5 -25.5t104.5 -98.5l-31 -69q-49 72 -89.5 99.5t-98.5 27.5q-88 0 -137 -51t-75 -176h351l-25 -59h-332q-2 -34 -2 -38q0 -17 1 -31h303l-24 -59h-274q14 -106 68 -163t140 -57q58 0 93.5 18t94.5 73v-81 q-40 -40 -83.5 -57.5t-103.5 -17.5q-118 0 -188.5 69.5t-95.5 215.5h-96l24 59h68q-1 14 -1 31q0 4 2 38h-94z" />
<glyph unicode="&#x2122;" horiz-adv-x="1000" d="M63 687v52h285v-52h-111v-369h-62v369h-112zM418 318v421h87l173 -338l173 338h86v-421h-62v340l-173 -340h-50l-171 340v-340h-63z" />
<glyph unicode="&#xe000;" horiz-adv-x="545" d="M0 0v545h545v-545h-545z" />
</font>
</defs>
</svg>
